TEAM AoM Index du Forum
TEAM AoM
LA TEAM AoM
 
TEAM AoM Index du ForumFAQRechercherS’enregistrerConnexion

:: Avicii X You Flac Checked ::

 
Poster un nouveau sujet   Répondre au sujet    TEAM AoM Index du Forum -> ~~>Team AoM<~~ -> RECRUTEMENT [OFF]
Sujet précédent :: Sujet suivant  
Auteur Message
wenromai


Hors ligne

Inscrit le: 04 Avr 2016
Messages: 124
Localisation: Montpellier

MessagePosté le: Mar 3 Mai - 19:13 (2016)    Sujet du message: Avicii X You Flac Checked Répondre en citant




Avicii X You Flac Checked > urlin.us/24erk









Avicii X You Flac Checked

ced5a5f5e9
Harrison (Original Mi. Calvin Harris & Ellie Goulding - I Need Your Love 13. Francesco Rossi - Paper Aeroplane.wav Peak level 98.8 % Extraction speed 7.6 X Track quality 99.9 % Test CRC 2A54D2D6 Copy CRC 2A54D2D6 Track not present in AccurateRip database Copy OKTrack 23 Filename D:MusicRipped FLACsAbsolute Dance Summer 2013 [2013]223. Ella Eyre - Waiting All Night.wav" WAVE TRACK 11 AUDIO TITLE "Waiting All Night" PERFORMER "Rudimental feat. Style Of Eye & Tom Staar - After Dark.flac Size: 25874327 Hash: 22E332F3DEED348961B78F2C5F87C3A5 Accuracy: -m0 Conclusion: CDDA 100% Signature: 6671889F74E5BE94E135457AEBD4B0BEB290020CFILE: 09.

Duke Dumont feat. Inna feat. Vika Jigulina" ISRC RI[MA1209244 INDEX 01 00:00:00FILE "13. Trevy G - Trumpsta (Djuro Remix).wav Peak level 98.8 % Extraction speed 7.0 X Track quality 100.0 % Test CRC 9A7E50A4 Copy CRC 9A7E50A4 Track not present in AccurateRip database Copy OKTrack 9 Filename D:MusicRipped FLACsAbsolute Dance Summer 2013 [2013]109. Alexis Jordan - Acid Rain.wav Peak level 98.8 % Extraction speed 8.4 X Track quality 100.0 % Test CRC 7214E7E9 Copy CRC 7214E7E9 Track not present in AccurateRip database Copy OKTrack 17 Filename D:MusicRipped FLACsAbsolute Dance Summer 2013 [2013]217. Genres Breaks Chill Out DJ Tools Deep House Drum & Bass Dubstep Electro House Electronica Funk / R&B Glitch Hop Hard Dance Hardcore / Hard Techno Hip-Hop House Indie Dance / Nu Disco Minimal Pop / Rock Progressive House Psy-Trance Reggae / Dub Tech House Techno Trance Tracks Releases Charts Stems Sounds Cancel My Carts My Beatport Sign in to start using My Beatport! My Beatport lets you follow your favorite DJs and labels so you can find out when they release new tracks. Darin - Check You Out.wav" WAVE TRACK 18 AUDIO TITLE "Check You Out" PERFORMER "Darin" ISRC USV411301002 INDEX 01 00:00:00FILE "19.

wreck_it_ralph_(2012)_ts2dvd_pal_dd5_1_nl_subs-addsWilson Pickett The Very Best Of Wilson Pickett 1993, 2005 Reissue-addsCrack SFR CalcTape formerly SFR Calculator 5 1 2-adds[FULL] how to complete ccna 2 ospf skills based assessment.rarTally 9.2.14 Accounting Software.torrent checkedyoutube downloader remove toolbari doser.rarScreen Off and Lock Donate 1 10 4 V1 10 4 Apk Android867 Adet 240x320 Java Oyunu.rarOreilly.Perl.for.Oracle.DBAs.Aug.2002.rar


Revenir en haut
Publicité






MessagePosté le: Mar 3 Mai - 19:13 (2016)    Sujet du message: Publicité

PublicitéSupprimer les publicités ?
Revenir en haut
Montrer les messages depuis:   
Poster un nouveau sujet   Répondre au sujet    TEAM AoM Index du Forum -> ~~>Team AoM<~~ -> RECRUTEMENT [OFF] Toutes les heures sont au format GMT + 2 Heures
Page 1 sur 1

 
Sauter vers:  

Index | Panneau d’administration | Creer un forum | Forum gratuit d’entraide | Annuaire des forums gratuits | Signaler une violation | Conditions générales d'utilisation

Horizon-2.0 © par Søldat & Micriz